[ オンエアリストに戻る ]
TITLE "Heavy Metal Syndicate #1220 - 23年間を振り返る"
FILE "2014-06-29.mp3" WAVE
  TRACK 01 AUDIO
    TITLE "Memorial: GOING TO BRAZIL"
    PERFORMER "MOTORHEAD : 1916"
    INDEX 01 00:00:09

  TRACK 02 AUDIO
    TITLE "Memorial: BEYOND THE PORTAL / ALL OVER THE NATIONS"
    PERFORMER "HELLOWEEN : The Dark Ride"
    INDEX 01 11:41:16

  TRACK 03 AUDIO
    TITLE "Memorial: BAD BOYS"
    PERFORMER "WHITESNAKE : Whitesnake"
    INDEX 01 20:42:16

  TRACK 04 AUDIO
    TITLE "Memorial: FIGHTING YOURSELF"
    PERFORMER "TERRA NOVA : Come Alive"
    INDEX 01 27:24:46

  TRACK 05 AUDIO
    TITLE "Ending: THE END"
    PERFORMER "DOORS : The Doors"
    INDEX 01 52:58:18

  TRACK 06 AUDIO
    TITLE "Ending: WE WISH YOU WELL"
    PERFORMER "WHITESNAKE : Lovehunter"
    INDEX 01 57:12:72


SEO [PR] おまとめローン 冷え性対策 坂本龍馬 動画掲示板 レンタルサーバー SEO