[ オンエアリストに戻る ]
TITLE "Heavy Metal Syndicate #1219"
FILE "2014-06-22.mp3" WAVE
  TRACK 01 AUDIO
    TITLE "GIMME A FEELIN'"
    PERFORMER "ACE FREHLEY : Space Invader"
    INDEX 01 00:00:10

  TRACK 02 AUDIO
    TITLE "YOUR TIME HAS COME"
    PERFORMER "UNISONIC : Light of Dawn"
    INDEX 01 16:37:68

  TRACK 03 AUDIO
    TITLE "THE SUN WILL SHINE AGAIN"
    PERFORMER "MOTHER ROAD : Drive"
    INDEX 01 24:34:58

  TRACK 04 AUDIO
    TITLE "ANYBODY HOME? (new demo 2014)"
    PERFORMER "RAGE : The Soundchaser Archives - 30th anniversary"
    INDEX 01 30:08:36

  TRACK 05 AUDIO
    TITLE "GOODBYE YELLOW BRICK ROAD"
    PERFORMER "PAUL GILBERT : Stone Pushing Uphill Man"
    INDEX 01 37:43:43

  TRACK 06 AUDIO
    TITLE "Introduction: BURN"
    PERFORMER "DEEP PURPLE : Burn (Digitally remastered)"
    INDEX 01 48:00:53

  TRACK 07 AUDIO
    TITLE "Classic rock: FASCINATING RHYTHM"
    PERFORMER "ART PEPPER : The Art of Pepper vol.2 (reel-to-reel)"
    INDEX 01 51:36:19


SEO [PR] おまとめローン 冷え性対策 坂本龍馬 動画掲示板 レンタルサーバー SEO