[ オンエアリストに戻る ]
TITLE "Heavy Metal Syndicate #1218"
FILE "2014-06-15.mp3" WAVE
  TRACK 01 AUDIO
    TITLE "WORLD ON FIRE"
    PERFORMER "SLASH featuring Myles Kennedy & The Conspirators : World on Fire"
    INDEX 01 00:00:08

  TRACK 02 AUDIO
    TITLE "THE SPEED OF SOUND"
    PERFORMER "RAGE : The Soundchaser Archives - 30th anniversary"
    INDEX 01 16:16:12

  TRACK 03 AUDIO
    TITLE "Reissue: LAZY (Live 1972)"
    PERFORMER "DEEP PURPLE : In Concert '72 (2012 remix)"
    INDEX 01 25:33:70

  TRACK 04 AUDIO
    TITLE "NIGHT WITCHES"
    PERFORMER "SABATON : Heroes"
    INDEX 01 37:20:73

  TRACK 05 AUDIO
    TITLE "Introduction: HOUND DOG"
    PERFORMER "ELVIS PRESLEY : Hound Dog (single) (Digitally remastered)"
    INDEX 01 45:13:54

  TRACK 06 AUDIO
    TITLE "Introduction: LONG TALL SALLY"
    PERFORMER "LITTLE RICHARD And His Band : Here's Little Richard"
    INDEX 01 46:11:60

  TRACK 07 AUDIO
    TITLE "Classic rock: HOUND DOG / LONG TALL SALLY (Live 1978)"
    PERFORMER "SCORPIONS : Tokyo Tapes (Digitally remastered)"
    INDEX 01 49:27:73


SEO [PR] おまとめローン 冷え性対策 坂本龍馬 動画掲示板 レンタルサーバー SEO