[ オンエアリストに戻る ]
TITLE "Heavy Metal Syndicate #1217"
FILE "2014-06-08.mp3" WAVE
  TRACK 01 AUDIO
    TITLE "Reissue: HEARTBREAKER (Rough Mix With Vocal)"
    PERFORMER "LED ZEPPELIN : Led Zeppelin II (Disc 2) (2014 Reissue)"
    INDEX 01 00:00:09

  TRACK 02 AUDIO
    TITLE "THE OUTSIDER"
    PERFORMER "URIAH HEEP : Outsider"
    INDEX 01 16:56:72

  TRACK 03 AUDIO
    TITLE "Introduction: BACK IN THE SADDLE"
    PERFORMER "AEROSMITH : Rocks (Digitally remastered)"
    INDEX 01 21:51:16

  TRACK 04 AUDIO
    TITLE "BACK IN THE SADDLE"
    PERFORMER "PAUL GILBERT : Stone Pushing Uphill Man"
    INDEX 01 26:06:63

  TRACK 05 AUDIO
    TITLE "Reissue: WHAT DO YOU WANT FROM ME"
    PERFORMER "PINK FLOYD : The Division Bell - 20th anniversary edition"
    INDEX 01 35:09:10

  TRACK 06 AUDIO
    TITLE "Introduction: PIECE OF MY HEART"
    PERFORMER "BIG BROTHER & THE HOLDING COMPANY : Cheap Thrills"
    INDEX 01 47:30:56

  TRACK 07 AUDIO
    TITLE "Classic rock: PIECE OF MY HEART"
    PERFORMER "ROUGH CUTT : Rough Cutt"
    INDEX 01 51:45:45


SEO [PR] おまとめローン 冷え性対策 坂本龍馬 動画掲示板 レンタルサーバー SEO