[ オンエアリストに戻る ]
TITLE "Heavy Metal Syndicate #1216"
FILE "2014-06-01.mp3" WAVE
  TRACK 01 AUDIO
    TITLE "MARCH OF THE DAMNED"
    PERFORMER "JUDAS PRIEST : Redeemer of Souls"
    INDEX 01 00:00:08

  TRACK 02 AUDIO
    TITLE "Reissue: THE IMMIGRANT SONG (Alternate Mix)"
    PERFORMER "LED ZEPPELIN : Led Zeppelin III (Disc 2) (2014 Reissue)"
    INDEX 01 13:27:13

  TRACK 03 AUDIO
    TITLE "Introduction: WORKING FOR THE WEEKEND"
    PERFORMER "LOVERBOY : Get Lucky"
    INDEX 01 17:17:19

  TRACK 04 AUDIO
    TITLE "WORKING FOR THE WEEKEND"
    PERFORMER "PAUL GILBERT : Stone Pushing Uphill Man"
    INDEX 01 19:15:49

  TRACK 05 AUDIO
    TITLE "ON AND ON"
    PERFORMER "ARCH ENEMY : War Eternal"
    INDEX 01 25:28:10

  TRACK 06 AUDIO
    TITLE "SO DIVINE..."
    PERFORMER "TESLA : Simplicity"
    INDEX 01 31:59:46

  TRACK 07 AUDIO
    TITLE "Introduction: BLACK MAGIC WOMAN"
    PERFORMER "FLEETWOOD MAC : The Pious Bird of Good Omen / English Rose (Digitally remastered)"
    INDEX 01 47:34:06

  TRACK 08 AUDIO
    TITLE "Classic rock: BLACK MAGIC WOMAN"
    PERFORMER "SANTANA : Abraxas (Digitally remastered)"
    INDEX 01 52:23:69


SEO [PR] おまとめローン 冷え性対策 坂本龍馬 動画掲示板 レンタルサーバー SEO