[ オンエアリストに戻る ]
TITLE "Heavy Metal Syndicate #1215"
FILE "2014-05-25.mp3" WAVE
  TRACK 01 AUDIO
    TITLE "STONE PUSHING UPHILL MAN"
    PERFORMER "PAUL GILBERT : Stone Pushing Uphill Man"
    INDEX 01 00:00:09

  TRACK 02 AUDIO
    TITLE "CAN'T TAKE THAT AWAY"
    PERFORMER "URIAH HEEP : Outsider"
    INDEX 01 22:13:07

  TRACK 03 AUDIO
    TITLE "HIGH ROAD"
    PERFORMER "MASTODON : Once More 'Round the Sun"
    INDEX 01 29:17:72

  TRACK 04 AUDIO
    TITLE "STOLEN LIFE"
    PERFORMER "ARCH ENEMY : War Eternal"
    INDEX 01 33:54:50

  TRACK 05 AUDIO
    TITLE "FAR AWAY FROM LOVE"
    PERFORMER "BROTHER FIRETRIBE : Diamond in the Firepit"
    INDEX 01 38:31:53

  TRACK 06 AUDIO
    TITLE "Introduction: MORE THAN A FEELING"
    PERFORMER "BOSTON : Boston (Digitally remastered)"
    INDEX 01 45:39:10

  TRACK 07 AUDIO
    TITLE "Classic rock: MORE THAN A FEELING"
    PERFORMER "STEVE MORRIS (Produced by) : Tribute to Boston"
    INDEX 01 49:07:61


SEO [PR] おまとめローン 冷え性対策 坂本龍馬 動画掲示板 レンタルサーバー SEO