[ オンエアリストに戻る ]
TITLE "Heavy Metal Syndicate #1214"
FILE "2014-05-18.mp3" WAVE
  TRACK 01 AUDIO
    TITLE "REDEEMER OF SOULS"
    PERFORMER "JUDAS PRIEST : Redeemer of Souls"
    INDEX 01 00:00:10

  TRACK 02 AUDIO
    TITLE "RICOCHET"
    PERFORMER "TESLA : Simplicity"
    INDEX 01 17:01:57

  TRACK 03 AUDIO
    TITLE "DESIGN THE CENTURY"
    PERFORMER "TIMO TOLKKI'S AVALON : Angels of the Apocalypse"
    INDEX 01 22:50:58

  TRACK 04 AUDIO
    TITLE "NEVER FORGIVE, NEVER FORGET"
    PERFORMER "ARCH ENEMY : War Eternal"
    INDEX 01 27:44:18

  TRACK 05 AUDIO
    TITLE "Reissue: WHOLE LOTTA LOVE (Rough Mix With Vocal)"
    PERFORMER "LED ZEPPELIN : Led Zeppelin II (Disc 2) (2014 Reissue)"
    INDEX 01 35:02:52

  TRACK 06 AUDIO
    TITLE "Introduction: OH, PRETTY WOMAN"
    PERFORMER "ROY ORBISON : Oh, Pretty Woman (single) / Orbisongs"
    INDEX 01 49:01:55

  TRACK 07 AUDIO
    TITLE "Classic rock: (OH) PRETTY WOMAN"
    PERFORMER "VAN HALEN : Diver Down (Digitally remastered)"
    INDEX 01 53:19:50


SEO [PR] おまとめローン 冷え性対策 坂本龍馬 動画掲示板 レンタルサーバー SEO