[ オンエアリストに戻る ]
TITLE "Heavy Metal Syndicate #1213"
FILE "2014-05-11.mp3" WAVE
  TRACK 01 AUDIO
    TITLE "YOU COME UNDONE"
    PERFORMER "UNISONIC : For the Kingdom (EP)"
    INDEX 01 00:00:11

  TRACK 02 AUDIO
    TITLE "HELLO I MUST BE GOING"
    PERFORMER "HURTSMILE : Retrogrenade"
    INDEX 01 09:31:59

  TRACK 03 AUDIO
    TITLE "Reissue: LUCILLE (Live 1972)"
    PERFORMER "DEEP PURPLE : Made in Japan / ライヴ・イン・ジャパン (Super Deluxe Box) (CD Four - Encores)"
    INDEX 01 18:30:27

  TRACK 04 AUDIO
    TITLE "WHY CRY"
    PERFORMER "RONNI LE TEKRO : Mein Ampf"
    INDEX 01 30:16:30

  TRACK 05 AUDIO
    TITLE "DOGGERLAND"
    PERFORMER "IAN ANDERSON : Homo Erraticus"
    INDEX 01 36:49:24

  TRACK 06 AUDIO
    TITLE "Introduction: KILLER QUEEN"
    PERFORMER "QUEEN : Sheer Heart Attack (Digitally remastered)"
    INDEX 01 47:56:24

  TRACK 07 AUDIO
    TITLE "Classic rock: KILLER QUEEN"
    PERFORMER "GLENN HUGHES * PAT THRALL * STU HAMM * PAUL TAYLOR * CARMINE APPICE"
    Stone Cold Queen - A Tribute (Compilation)
    INDEX 01 52:04:33


SEO [PR] おまとめローン 冷え性対策 坂本龍馬 動画掲示板 レンタルサーバー SEO