[ オンエアリストに戻る ]
TITLE "Heavy Metal Syndicate #1212 - ゴールデンウィーク、 ライヴ・ヴァージョン・スペシャル"
FILE "2014-05-04.mp3" WAVE
  TRACK 01 AUDIO
    TITLE "Classic rock: RED HOT (Live 1990)"
    PERFORMER "MOTLEY CRUE : Decade of Decadence (Japanese edition)"
    INDEX 01 00:00:10

  TRACK 02 AUDIO
    TITLE "Classic rock: SAFE IN NEW YORK CITY (Live 2000)"
    PERFORMER "AC/DC : Backtracks"
    INDEX 01 13:23:59

  TRACK 03 AUDIO
    TITLE "Classic rock: GREEN-TINTED SIXTIES MIND (Live 1991)"
    PERFORMER "MR. BIG : Live and Kickin' (DVD)"
    INDEX 01 19:09:35

  TRACK 04 AUDIO
    TITLE "Classic rock: LIVIN' ON A PRAYER (Live 1995)"
    PERFORMER "BON JOVI : Live from London (DVD)"
    INDEX 01 24:23:57

  TRACK 05 AUDIO
    TITLE "Classic rock: WALK IN THE SHADOWS (Live 1991)"
    PERFORMER "QUEENSRYCHE : Building Empires (DVD)"
    INDEX 01 31:53:11

  TRACK 06 AUDIO
    TITLE "Classic rock: ENTER SANDMAN (Live 2007)"
    PERFORMER "METALLICA : Live from Live Earth - EP (download EP)"
    INDEX 01 36:33:20

  TRACK 07 AUDIO
    TITLE "Classic rock: FOREVER (Live 1982)"
    PERFORMER "Y&T : Open Fire"
    INDEX 01 50:26:40
    TITLE "ENTER SANDMAN (Live from Live Earth)"
    PERFORMER "METALLICA : Metallica (download EP)"


SEO [PR] おまとめローン 冷え性対策 坂本龍馬 動画掲示板 レンタルサーバー SEO