[ オンエアリストに戻る ]
TITLE "Heavy Metal Syndicate #1211"
FILE "2014-04-27.mp3" WAVE
  TRACK 01 AUDIO
    TITLE "Reissue: SPEED KING (Live in Tokyo 1972)"
    PERFORMER "DEEP PURPLE : Made in Japan / ライヴ・イン・ジャパン (Super Deluxe Box) (CD Four - Encores)"
    INDEX 01 00:00:09

  TRACK 02 AUDIO
    TITLE "HIGH ROAD"
    PERFORMER "NIGHT RANGER : High Road"
    INDEX 01 18:29:24

  TRACK 03 AUDIO
    TITLE "ROCK & ROLL CLICHE"
    PERFORMER "HURTSMILE : Retrogrenade"
    INDEX 01 24:42:46

  TRACK 04 AUDIO
    TITLE "NO MORE REGRETS"
    PERFORMER "ARCH ENEMY : War Eternal"
    INDEX 01 29:54:38

  TRACK 05 AUDIO
    TITLE "LOVE IS NOT ENOUGH"
    PERFORMER "BROTHER FIRETRIBE : Diamond in the Firepit"
    INDEX 01 37:38:69

  TRACK 06 AUDIO
    TITLE "Introduction: TIME AFTER TIME"
    PERFORMER "CYNDI LAUPER : She's So Unusual"
    INDEX 01 48:43:68

  TRACK 07 AUDIO
    TITLE "Classic rock: TIME AFTER TIME"
    PERFORMER "SKIN OF TEARS : After Eighties / Out of Line (Japanese edition)"
    INDEX 01 52:51:65


SEO [PR] おまとめローン 冷え性対策 坂本龍馬 動画掲示板 レンタルサーバー SEO