[ オンエアリストに戻る ]
TITLE "Heavy Metal Syndicate #1210"
FILE "2014-04-20.mp3" WAVE
  TRACK 01 AUDIO
    TITLE "Reissue: GOOD TIMES BAD TIMES/COMMUNICATION BREAKDOWN (Live 1969)"
    PERFORMER "LED ZEPPELIN : Led Zeppelin (Disc 2) (2014 Reissue)"
    INDEX 01 00:00:09

  TRACK 02 AUDIO
    TITLE "WHY CRY"
    PERFORMER "RONNI LE TEKRO : Mein Ampf"
    INDEX 01 19:08:20

  TRACK 03 AUDIO
    TITLE "HEROES (AS WE ARE)"
    PERFORMER "SMASH INTO PIECES : Unbreakable"
    INDEX 01 24:29:10

  TRACK 04 AUDIO
    TITLE "CAIN"
    PERFORMER "STILL REMAINS : Ceasing to Breathe"
    INDEX 01 28:47:68

  TRACK 05 AUDIO
    TITLE "THE SUN WILL RISE AGAIN"
    PERFORMER "LOUDNESS : The Sun Will Rise Again 〜 撃魂霊刀"
    INDEX 01 35:36:63

  TRACK 06 AUDIO
    TITLE "Introduction: COME TOGETHER"
    PERFORMER "BEATLES : Abbey Road (Digitally remastered)"
    INDEX 01 47:53:63

  TRACK 07 AUDIO
    TITLE "Classic rock: COME TOGETHER"
    PERFORMER "AEROSMITH : Sgt. Pepper's Lonely Hearts Club Band (Soundtrack) (Digitally remastered)"
    INDEX 01 51:25:45


SEO [PR] おまとめローン 冷え性対策 坂本龍馬 動画掲示板 レンタルサーバー SEO