[ オンエアリストに戻る ]
TITLE "Heavy Metal Syndicate #1209"
FILE "2014-04-13.mp3" WAVE
  TRACK 01 AUDIO
    TITLE "INFERNO"
    PERFORMER "MARTY FRIEDMAN : Inferno"
    INDEX 01 00:00:09

  TRACK 02 AUDIO
    TITLE "LOVE TYGER"
    PERFORMER "EDGUY : Space Police - Defenders of the Crown"
    INDEX 01 18:07:15

  TRACK 03 AUDIO
    TITLE "BARE YOUR TEETH"
    PERFORMER "STILL REMAINS : Ceasing to Breathe"
    INDEX 01 24:12:36

  TRACK 04 AUDIO
    TITLE "BREATHING"
    PERFORMER "TRIPTYKON : Melana Chasmata"
    INDEX 01 30:58:06

  TRACK 05 AUDIO
    TITLE "COLDER"
    PERFORMER "SMASH INTO PIECES : Unbreakable"
    INDEX 01 37:26:39

  TRACK 06 AUDIO
    TITLE "Introduction: HOLIDAYS IN THE SUN"
    PERFORMER "SEX PISTOLS : Never Mind the Bollocks - Here's the Sex Pistols"
    INDEX 01 46:57:54

  TRACK 07 AUDIO
    TITLE "Classic rock: HOLIDAYS IN THE SUN"
    PERFORMER "SKID ROW : Make a Difference Foundation - Stairway to Heaven / Highway to Hell (Compilation)"
    INDEX 01 51:12:10


SEO [PR] おまとめローン 冷え性対策 坂本龍馬 動画掲示板 レンタルサーバー SEO