[ オンエアリストに戻る ]
TITLE "Heavy Metal Syndicate #1208"
FILE "2014-04-06.mp3" WAVE
  TRACK 01 AUDIO
    TITLE "SABRE & TORCH"
    PERFORMER "EDGUY : Space Police - Defenders of the Crown"
    INDEX 01 00:00:09

  TRACK 02 AUDIO
    TITLE "INFERNO"
    PERFORMER "H.E.A.T : Tearing Down the Walls"
    INDEX 01 14:53:25

  TRACK 03 AUDIO
    TITLE "PARISIENNE WALKWAYS (Live 1980)"
    PERFORMER "GARY MOORE : Parisienne Walkways - Jet to the Best"
    INDEX 01 22:52:39

  TRACK 04 AUDIO
    TITLE "SOMOS UNO"
    PERFORMER "DE LA TIERRA : De La Tierra"
    INDEX 01 33:06:35

  TRACK 05 AUDIO
    TITLE "Introduction: ONE"
    PERFORMER "NILSSON : Aerial Ballet"
    INDEX 01 44:39:07

  Background music
    TITLE "Introduction: ONE"
    PERFORMER "THREE DOG NIGHT : Three Dog Night"
    INDEX 01 47:21:28

  TRACK 06 AUDIO
    TITLE "Classic rock: ONE"
    PERFORMER "DOKKEN : Erase the Slate"
    INDEX 01 49:03:63


SEO [PR] おまとめローン 冷え性対策 坂本龍馬 動画掲示板 レンタルサーバー SEO