[ オンエアリストに戻る ]
TITLE "Heavy Metal Syndicate #1207"
FILE "2014-03-30.mp3" WAVE
  TRACK 01 AUDIO
    TITLE "WAR ETERNAL"
    PERFORMER "ARCH ENEMY : War Eternal"
    INDEX 01 00:00:10

  TRACK 02 AUDIO
    TITLE "TRUST YOUR LOVIN'"
    PERFORMER "G FORCE : Parisienne Walkways - Jet to the Best"
    INDEX 01 19:47:45

  TRACK 03 AUDIO
    TITLE "GLORYHOLE"
    PERFORMER "STEEL PANTHER : All You Can Eat"
    INDEX 01 25:12:10

  TRACK 04 AUDIO
    TITLE "C'EST LA VIE"
    PERFORMER "GOTTHARD : Bang!"
    INDEX 01 32:13:69

  TRACK 05 AUDIO
    TITLE "FUERA"
    PERFORMER "DE LA TIERRA : De La Tierra"
    INDEX 01 38:10:65

  TRACK 06 AUDIO
    TITLE "Introduction: FIRE"
    PERFORMER "CRAZY WORLD OF ARTHUR BROWN : The Crazy World of Arthur Brown"
    INDEX 01 44:50:70

  TRACK 07 AUDIO
    TITLE "Classic rock: FIRE"
    PERFORMER "OZZY OSBOURNE : Prince of Darkness (Disc 4) / Under Cover"
    INDEX 01 50:50:29


SEO [PR] おまとめローン 冷え性対策 坂本龍馬 動画掲示板 レンタルサーバー SEO