[ オンエアリストに戻る ]
TITLE "Heavy Metal Syndicate #1206"
FILE "2014-03-23.mp3" WAVE
  TRACK 01 AUDIO
    TITLE "SEVEN"
    PERFORMER "GAMMA RAY : Empire of the Undead"
    INDEX 01 00:00:10

  TRACK 02 AUDIO
    TITLE "RUNNING LIGHTS"
    PERFORMER "SONATA ARCTICA : Pariah's Child"
    INDEX 01 17:21:33

  TRACK 03 AUDIO
    TITLE "CROSS THE LINE"
    PERFORMER "DYNAZTY : Renatus"
    INDEX 01 24:32:31

  TRACK 04 AUDIO
    TITLE "REDEMPTION"
    PERFORMER "GUS G. : I Am the Fire (feat. Michael Starr)"
    INDEX 01 29:46:14

  TRACK 05 AUDIO
    TITLE "STRAIGHT THROUGH THE HEART"
    PERFORMER "HALESTORM : Ronnie James Dio - This Is Your Life (Compilation)"
    INDEX 01 37:50:11

  TRACK 06 AUDIO
    TITLE "Introduction: WE GOTTA GET OUT OF THIS PLACE"
    PERFORMER "ANIMALS : Animal Tracks (US edition)"
    INDEX 01 45:42:64

  TRACK 07 AUDIO
    TITLE "Classic rock: WE GOTTA GET OUT OF THIS PLACE (Live 1978)"
    PERFORMER "BLUE OYSTER CULT : Some Enchanted Evening (Digitally remastered)"
    INDEX 01 50:34:04


SEO [PR] おまとめローン 冷え性対策 坂本龍馬 動画掲示板 レンタルサーバー SEO