[ オンエアリストに戻る ]
TITLE "Heavy Metal Syndicate #1205"
FILE "2014-03-16.mp3" WAVE
  TRACK 01 AUDIO
    TITLE "MY DYING TIME"
    PERFORMER "BLACK LABEL SOCIETY : Catacombs of the Black Vatican"
    INDEX 01 00:00:10

  TRACK 02 AUDIO
    TITLE "MY WILL BE DONE"
    PERFORMER "GUS G. : I Am the Fire (feat. Mats Levén)"
    INDEX 01 14:44:71

  TRACK 03 AUDIO
    TITLE "RUN AMOK"
    PERFORMER "DYNAZTY : Renatus"
    INDEX 01 20:29:62

  TRACK 04 AUDIO
    TITLE "WHAT YOU GET"
    PERFORMER "GOTTHARD : Bang!"
    INDEX 01 24:25:66

  TRACK 05 AUDIO
    TITLE "BLACK RAINBOW"
    PERFORMER "OATH : The Oath"
    INDEX 01 31:13:19

  TRACK 06 AUDIO
    TITLE "Introduction: PEOPLE GET READY"
    PERFORMER "IMPRESSIONS : People Get Ready"
    INDEX 01 44:46:27

  TRACK 07 AUDIO
    TITLE "Classic rock: PEOPLE GET READY"
    PERFORMER "JEFF BECK and ROD STEWART : Flash (Digitally remastered)"
    INDEX 01 49:09:43


SEO [PR] おまとめローン 冷え性対策 坂本龍馬 動画掲示板 レンタルサーバー SEO