[ オンエアリストに戻る ]
TITLE "Heavy Metal Syndicate #1204"
FILE "2014-03-09.mp3" WAVE
  TRACK 01 AUDIO
    TITLE "HELLBENT"
    PERFORMER "GAMMA RAY : Empire of the Undead"
    INDEX 01 00:00:11

  TRACK 02 AUDIO
    TITLE "STARSTRUCK"
    PERFORMER "MOTORHEAD with BIFF BYFORD : Ronnie James Dio - This Is Your Life (Compilation)"
    INDEX 01 14:21:29

  TRACK 03 AUDIO
    TITLE "RAT RACE"
    PERFORMER "WINGER : Better Days Comin'"
    INDEX 01 20:38:06

  TRACK 04 AUDIO
    TITLE "HARMONY"
    PERFORMER "SEBASTIAN BACH : Give 'Em Hell"
    INDEX 01 25:53:43

  TRACK 05 AUDIO
    TITLE "HAMMERED DOWN"
    PERFORMER "SAVAGE MESSIAH : The Fateful Dark"
    INDEX 01 31:26:70

  TRACK 06 AUDIO
    TITLE "Introduction: EMINENCE FRONT"
    PERFORMER "WHO : It's Hard (Digitally remastered)"
    INDEX 01 41:57:48

  TRACK 07 AUDIO
    TITLE "Classic rock: EMINENCE FRONT"
    PERFORMER "JOHN WETTON ・ K.K. DOWNING ・ DEREK SHERINIAN : Who Are You - An All-Star Tribute to The Who (Compilation)"
    INDEX 01 47:37:21


SEO [PR] おまとめローン 冷え性対策 坂本龍馬 動画掲示板 レンタルサーバー SEO