[ オンエアリストに戻る ]
TITLE "Heavy Metal Syndicate #1203"
FILE "2014-03-02.mp3" WAVE
  TRACK 01 AUDIO
    TITLE "GET UP'N'MOVE ON"
    PERFORMER "GOTTHARD : Bang!"
    INDEX 01 00:00:11

  TRACK 02 AUDIO
    TITLE "THE WOLVES DIE YOUNG"
    PERFORMER "SONATA ARCTICA : Pariah's Child"
    INDEX 01 14:14:21

  TRACK 03 AUDIO
    TITLE "PUSSYWHIPPED"
    PERFORMER "STEEL PANTHER : All You Can Eat"
    INDEX 01 20:16:74

  TRACK 04 AUDIO
    TITLE "GOING TO HELL"
    PERFORMER "PRETTY RECKLESS : Going to Hell"
    INDEX 01 25:52:60

  TRACK 05 AUDIO
    TITLE "NIGHT CHILD"
    PERFORMER "OATH : The Oath"
    INDEX 01 32:53:65

  TRACK 06 AUDIO
    TITLE "Introduction: STILL I'M SAD"
    PERFORMER "YARDBIRDS : Evil Hearted You (single)"
    INDEX 01 46:46:17

  TRACK 07 AUDIO
    TITLE "Classic rock: STILL I'M SAD"
    PERFORMER "RITCHIE BLACKMORE'S RAINBOW : Ritchie Blackmore's Rainbow (Digitally remastered)"
    INDEX 01 50:31:01


SEO [PR] おまとめローン 冷え性対策 坂本龍馬 動画掲示板 レンタルサーバー SEO