[ オンエアリストに戻る ]
TITLE "Heavy Metal Syndicate #1202"
FILE "2014-02-23.mp3" WAVE
  TRACK 01 AUDIO
    TITLE "MINORITY OF ONE"
    PERFORMER "SAVAGE MESSIAH : The Fateful Dark"
    INDEX 01 00:00:09

  TRACK 02 AUDIO
    TITLE "OUR LOVE TO STAY"
    PERFORMER "LRS : Down to the Core"
    INDEX 01 14:00:74

  TRACK 03 AUDIO
    TITLE "LAST WARNING"
    PERFORMER "SHEAR : Katharsis"
    INDEX 01 20:50:40

  TRACK 04 AUDIO
    TITLE "ROCK AND ROLL, HOOCHIE KOO"
    PERFORMER "JOHNNY WINTER : True to the Blues - The Johnny Winter Story"
    INDEX 01 27:32:47

  TRACK 05 AUDIO
    TITLE "C'EST LA VIE (Live 2010)"
    PERFORMER "KEITH EMERSON & GREG LAKE : Live from Manticore Hall"
    INDEX 01 33:36:39

  TRACK 06 AUDIO
    TITLE "Introduction: SMOKIN' IN THE BOY'S ROOM"
    PERFORMER "BROWNSVILLE STATION : Yeah!"
    INDEX 01 46:39:50

  TRACK 07 AUDIO
    TITLE "Classic rock: SMOKIN' IN THE BOYS ROOM"
    PERFORMER "MOTLEY CRUE : Theatre of Pain"
    INDEX 01 49:59:54


SEO [PR] おまとめローン 冷え性対策 坂本龍馬 動画掲示板 レンタルサーバー SEO