[ オンエアリストに戻る ]
TITLE "Heavy Metal Syndicate #1201"
FILE "2014-02-16.mp3" WAVE
  TRACK 01 AUDIO
    TITLE "FEEL WHAT I FEEL"
    PERFORMER "GOTTHARD : Bang!"
    INDEX 01 00:00:11

  TRACK 02 AUDIO
    TITLE "CROSS OF BABYLON"
    PERFORMER "SAVAGE MESSIAH : The Fateful Dark"
    INDEX 01 14:48:71

  TRACK 03 AUDIO
    TITLE "MOB IS BACK"
    PERFORMER "ADRENALINE MOB : Men of Honor"
    INDEX 01 21:35:25

  TRACK 04 AUDIO
    TITLE "DANCE WITH SOMEBODY"
    PERFORMER "IRON SAVIOR : Rise of the Hero"
    INDEX 01 26:15:22

  TRACK 05 AUDIO
    TITLE "CLOSE TO YOU"
    PERFORMER "VANDENBERG'S MOONKINGS : Vandenberg's MoonKings"
    INDEX 01 31:23:46

  TRACK 06 AUDIO
    TITLE "Introduction: ALL DAY AND ALL OF THE NIGHT"
    PERFORMER "KINKS : All Day and All of the Night (single)"
    INDEX 01 46:42:72

  TRACK 07 AUDIO
    TITLE "Classic rock: ALL DAY AND ALL OF THE NIGHT"
    PERFORMER "QUIET RIOT : Down to the Bone"
    INDEX 01 51:36:02


SEO [PR] おまとめローン 冷え性対策 坂本龍馬 動画掲示板 レンタルサーバー SEO