[ オンエアリストに戻る ]
TITLE "Heavy Metal Syndicate #1200"
FILE "2014-02-09.mp3" WAVE
  TRACK 01 AUDIO
    TITLE "BURNING HEART"
    PERFORMER "IRON SAVIOR : Rise of the Hero"
    INDEX 01 00:00:07

  TRACK 02 AUDIO
    TITLE "HELLBLAZER"
    PERFORMER "SAVAGE MESSIAH : The Fateful Dark"
    INDEX 01 14:08:13

  TRACK 03 AUDIO
    TITLE "IN MY SLEEP"
    PERFORMER "ALMAH : Unfold"
    INDEX 01 20:50:32

  TRACK 04 AUDIO
    TITLE "SAILING SHIPS"
    PERFORMER "VANDENBERG'S MOONKINGS : Vandenberg's MoonKings (featuring David Coverdale)"
    INDEX 01 25:23:54

  TRACK 05 AUDIO
    TITLE "BEAUTIFUL NIGHTMARE"
    PERFORMER "DEAD BY APRIL : Let the World Know"
    INDEX 01 31:29:52

  TRACK 06 AUDIO
    TITLE "Introduction: GREEN TAMBOURINE"
    PERFORMER "LEMON PIPERS : Green Tambourine"
    INDEX 01 50:24:07

  TRACK 07 AUDIO
    TITLE "Classic rock: GREEN TAMBOURINE"
    PERFORMER "STATUS QUO : Picturesque Matchstickable Messages from the Status Quo"
    INDEX 01 55:14:65


SEO [PR] おまとめローン 冷え性対策 坂本龍馬 動画掲示板 レンタルサーバー SEO