[ オンエアリストに戻る ]
TITLE "Heavy Metal Syndicate #1199"
FILE "2014-02-02.mp3" WAVE
  TRACK 01 AUDIO
    TITLE "HOUSE OF LIES"
    PERFORMER "ADRENALINE MOB : Men of Honor"
    INDEX 01 00:00:09

  TRACK 02 AUDIO
    TITLE "LINE OF FIRE"
    PERFORMER "VANDENBERG'S MOONKINGS : Vandenberg's MoonKings"
    INDEX 01 11:37:47

  TRACK 03 AUDIO
    TITLE "GET THE PARTY ON"
    PERFORMER "TREATMENT : Running with the Dogs"
    INDEX 01 17:14:39

  TRACK 04 AUDIO
    TITLE "WARM WIND"
    PERFORMER "ALMAH : Unfold"
    INDEX 01 23:07:41

  TRACK 05 AUDIO
    TITLE "THUNDER FROM THE MOUNTAINS"
    PERFORMER "IRON SAVIOR : Rise of the Hero"
    INDEX 01 30:10:07

  TRACK 06 AUDIO
    TITLE "Introduction: LOVE HURTS"
    PERFORMER "EVERLY BROTHERS : A Date with the Everly Brothers"
    INDEX 01 47:11:19

  TRACK 07 AUDIO
    TITLE "Classic rock: LOVE HURTS"
    PERFORMER "NAZARETH : Hair of the Dog (Digitally remastered)"
    INDEX 01 51:24:53


SEO [PR] おまとめローン 冷え性対策 坂本龍馬 動画掲示板 レンタルサーバー SEO