[ オンエアリストに戻る ]
TITLE "Heavy Metal Syndicate #1198"
FILE "2014-01-26.mp3" WAVE
  TRACK 01 AUDIO
    TITLE "LUST AND LIES"
    PERFORMER "VANDENBERG'S MOONKINGS : Vandenberg's MoonKings"
    INDEX 01 00:00:11

  TRACK 02 AUDIO
    TITLE "DEARLY DEPARTED"
    PERFORMER "ADRENALINE MOB : Men of Honor"
    INDEX 01 19:10:01

  TRACK 03 AUDIO
    TITLE "DROP LIKE A STONE"
    PERFORMER "TREATMENT : Running with the Dogs"
    INDEX 01 25:56:04

  TRACK 04 AUDIO
    TITLE "HOME IS WHERE THE STY IS"
    PERFORMER "POISONBLACK : Lyijy"
    INDEX 01 31:14:47

  TRACK 05 AUDIO
    TITLE "Introduction: THE TIMES THEY ARE A-CHANGIN'"
    PERFORMER "BOB DYLAN : The Times They Are a-Changin' (Digitally remastered)"
    INDEX 01 44:08:73

  TRACK 06 AUDIO
    TITLE "Classic rock: THE TIMES THEY ARE A CHANGIN'"
    PERFORMER "BLACKMORE'S NIGHT : Fires at Midnight"
    INDEX 01 48:12:41


SEO [PR] おまとめローン 冷え性対策 坂本龍馬 動画掲示板 レンタルサーバー SEO