[ オンエアリストに戻る ]
TITLE "Heavy Metal Syndicate #1197"
FILE "2014-01-19.mp3" WAVE
  TRACK 01 AUDIO
    TITLE "I BLEED ROCK + ROLL"
    PERFORMER "TREATMENT : Running with the Dogs"
    INDEX 01 00:00:10

  TRACK 02 AUDIO
    TITLE "ROAD TO ASYLUM"
    PERFORMER "PRIMAL FEAR : Delivering the Black"
    INDEX 01 11:38:49

  TRACK 03 AUDIO
    TITLE "NIGHTS IN WHITE SATIN"
    PERFORMER "TRANSATLANTIC : Kaleidoscope"
    INDEX 01 18:29:38

  TRACK 04 AUDIO
    TITLE "Reissue: VOIVOD (Live 2009)"
    PERFORMER "VOIVOD : Warriors of Ice (Released 2011)"
    INDEX 01 25:57:32

  TRACK 05 AUDIO
    TITLE "WHOLE WORLD IS WATCHING"
    PERFORMER "WITHIN TEMPTATION : Hydra (feat. dave pirner)"
    INDEX 01 31:07:03

  TRACK 06 AUDIO
    TITLE "Introduction: CHAIN OF FOOLS"
    PERFORMER "ARETHA FRANKLIN : Lady Soul"
    INDEX 01 46:56:17

  TRACK 07 AUDIO
    TITLE "Classic rock: CHAIN OF FOOLS"
    PERFORMER "TANK : Honour and Blood"
    INDEX 01 51:18:05


SEO [PR] おまとめローン 冷え性対策 坂本龍馬 動画掲示板 レンタルサーバー SEO