[ オンエアリストに戻る ]
TITLE "Heavy Metal Syndicate #1196"
FILE "2014-01-12.mp3" WAVE
  TRACK 01 AUDIO
    TITLE "WHERE ANGELS PLAY"
    PERFORMER "RING OF FIRE : Battle of Leningrad"
    INDEX 01 00:00:13

  TRACK 02 AUDIO
    TITLE "KING FOR A DAY"
    PERFORMER "PRIMAL FEAR : Delivering the Black"
    INDEX 01 13:16:22

  TRACK 03 AUDIO
    TITLE "BLACK AS THE SKY"
    PERFORMER "TRANSATLANTIC : Kaleidoscope"
    INDEX 01 20:28:45

  TRACK 04 AUDIO
    TITLE "CHANT FOR EZKATON 2000 E.V."
    PERFORMER "BEHEMOTH : The Satanist"
    INDEX 01 30:11:31

  TRACK 05 AUDIO
    TITLE "Introduction: SOS"
    PERFORMER "ABBA : Abba (Digitally remastered)"
    INDEX 01 47:42:27

  TRACK 06 AUDIO
    TITLE "Classic rock: SOS"
    PERFORMER "VALENTINE : Falling Down in Misanthropolis"
    INDEX 01 51:57:09


SEO [PR] おまとめローン 冷え性対策 坂本龍馬 動画掲示板 レンタルサーバー SEO