[ オンエアリストに戻る ]
TITLE "Heavy Metal Syndicate #1195 - かけたい曲をかける"
FILE "2014-01-05.mp3" WAVE
  TRACK 01 AUDIO
    TITLE "ジングル"
    INDEX 01 00:00:09

  TRACK 02 AUDIO
    TITLE "Introduction: 春の海"
    PERFORMER "箏:宮城道雄 尺八:吉田晴風 : 春の海 (single)"
    INDEX 01 00:45:01

  TRACK 03 AUDIO
    TITLE "Request: IRON MAN"
    PERFORMER "BLACK SABBATH : Paranoid"
    INDEX 01 03:36:19

  TRACK 04 AUDIO
    TITLE "Request: RUN WITH THE LIONS"
    PERFORMER "TONY CAREY : The New Machine"
    INDEX 01 12:08:09

  TRACK 05 AUDIO
    TITLE "Request: SHAKE A TAIL FEATHER"
    PERFORMER "RAY CHARLES with JOLIET JAKE & ELWOOD BLUES : The Blues Brothers - Music from the soundtrack"
    INDEX 01 17:54:27

  TRACK 06 AUDIO
    TITLE "Request: PLAY WITH THE FIRE"
    PERFORMER "TRIUMPH : The Sport of Kings"
    INDEX 01 22:52:08

  TRACK 07 AUDIO
    TITLE "Request: DANCING IN THE STREET"
    PERFORMER "DAVID BOWIE AND MICK JAGGER : Dancing in the Street (single)"
    INDEX 01 29:50:70

  TRACK 08 AUDIO
    TITLE "Request: COME ON YOU REDS"
    PERFORMER "The MANCHESTER UNITED Football Squad : Come On You Reds (single) (feat. Status Quo)"
    INDEX 01 37:16:09

  TRACK 09 AUDIO
    TITLE "Request: THE WILD ONE"
    PERFORMER "SUZI QUATRO : Quatro"
    INDEX 01 43:09:10

  TRACK 10 AUDIO
    TITLE "Request: SURRENDER TO ME"
    PERFORMER "BOSTON : Walk On"
    INDEX 01 50:20:05


SEO [PR] おまとめローン 冷え性対策 坂本龍馬 動画掲示板 レンタルサーバー SEO