[ オンエアリストに戻る ]
TITLE "Heavy Metal Syndicate #1194"
FILE "2013-12-29.mp3" WAVE
  TRACK 01 AUDIO
    TITLE "THEY'RE CALLING YOUR NAME"
    PERFORMER "RING OF FIRE : Battle of Leningrad"
    INDEX 01 00:00:00

  TRACK 02 AUDIO
    TITLE "CONQUISTADOR"
    PERFORMER "TRANSATLANTIC : Kaleidoscope"
    INDEX 01 17:37:52

  TRACK 03 AUDIO
    TITLE "SAME STAR"
    PERFORMER "DEAD BY APRIL : Let the World Know"
    INDEX 01 23:29:65

  TRACK 04 AUDIO
    TITLE "RISING FROM TRAGIC FLAMES"
    PERFORMER "RHAPSODY OF FIRE : Dark Wings of Steel"
    INDEX 01 27:39:73

  TRACK 05 AUDIO
    TITLE "BLOW YOUR TRUMPETS GABRIEL"
    PERFORMER "BEHEMOTH : The Satanist"
    INDEX 01 33:09:63

  TRACK 06 AUDIO
    TITLE "Classic rock: BABE I'M GONNA LEAVE YOU"
    PERFORMER "LED ZEPPELIN : Led Zeppelin (Digitally remastered)"
    INDEX 01 48:54:64


SEO [PR] おまとめローン 冷え性対策 坂本龍馬 動画掲示板 レンタルサーバー SEO