[ オンエアリストに戻る ]
TITLE "Heavy Metal Syndicate #1193"
FILE "2013-12-22.mp3" WAVE
  TRACK 01 AUDIO
    TITLE "DANGEROUS"
    PERFORMER "WITHIN TEMPTATION : Hydra (feat. howard jones)"
    INDEX 01 00:00:00

  TRACK 02 AUDIO
    TITLE "DELIVERING THE BLACK"
    PERFORMER "PRIMAL FEAR : Delivering the Black"
    INDEX 01 17:40:00

  TRACK 03 AUDIO
    TITLE "STARLIGHT"
    PERFORMER "DYNAZTY : Renatus"
    INDEX 01 23:43:12

  TRACK 04 AUDIO
    TITLE "HAPPY XMAS (WAR IS OVER)"
    PERFORMER "LAST AUTUMN'S DREAM : Platform - 10th anniversary best -"
    INDEX 01 29:07:59

  TRACK 05 AUDIO
    TITLE "JUNIOR'S WAILING (Live 2013)"
    PERFORMER "STATUS QUO : Back 2 SQ.1 - The Frantic Four Reunion 2013 - Live at Hammersmith Apollo"
    INDEX 01 34:00:55

  TRACK 06 AUDIO
    TITLE "Introduction: DUST IN THE WIND"
    PERFORMER "KANSAS : Point of Know Return (Digitally remastered)"
    INDEX 01 46:35:49

  TRACK 07 AUDIO
    TITLE "Classic rock: DUST IN THE WIND"
    PERFORMER "SARAH BRIGHTMAN : Eden"
    INDEX 01 51:26:43


SEO [PR] おまとめローン 冷え性対策 坂本龍馬 動画掲示板 レンタルサーバー SEO