[ オンエアリストに戻る ]
TITLE "Heavy Metal Syndicate #1192"
FILE "2013-12-15.mp3" WAVE
  TRACK 01 AUDIO
    TITLE "SEX E BIZARRE"
    PERFORMER "ORIANTHI : Heaven in This Hell (Deluxe edition) (feat. Steven Tyler)"
    INDEX 01 00:00:00

  TRACK 02 AUDIO
    TITLE "LIFE, LOVE & HOPE"
    PERFORMER "BOSTON : Life, Love & Hope"
    INDEX 01 14:32:05

  TRACK 03 AUDIO
    TITLE "WAR MACHINE"
    PERFORMER "RED DRAGON CARTEL : Red Dragon Cartel"
    INDEX 01 20:11:25

  TRACK 04 AUDIO
    TITLE "FIRST SIGN OF MADNESS"
    PERFORMER "DEEP PURPLE : The Now What?! Live Tapes"
    INDEX 01 25:17:21

  TRACK 05 AUDIO
    TITLE "BAPTIZED"
    PERFORMER "DAUGHTRY : Baptized"
    INDEX 01 32:21:20

  TRACK 06 AUDIO
    TITLE "Introduction: NUTCRACKER SUITE: MARCH"
    PERFORMER "NBC SYMPHONY ORCHESTRA : Light Classical Favourites Volume I"
    INDEX 01 46:05:62

  TRACK 07 AUDIO
    TITLE "Classic rock: NUTROCKER (Live 1971)"
    PERFORMER "EMERSON, LAKE & PALMER : Pictures at an Exhibition (Digitally remastered)"
    INDEX 01 50:30:24


SEO [PR] おまとめローン 冷え性対策 坂本龍馬 動画掲示板 レンタルサーバー SEO