[ オンエアリストに戻る ]
TITLE "Heavy Metal Syndicate #1191"
FILE "2013-12-08.mp3" WAVE
  TRACK 01 AUDIO
    TITLE "DARK CHEST OF WONDERS (Live 2013)"
    PERFORMER "NIGHTWISH : Showtime, Storytime"
    INDEX 01 00:00:00

  TRACK 02 AUDIO
    TITLE "MTV"
    PERFORMER "DEEP PURPLE : The Now What?! Live Tapes"
    INDEX 01 17:33:57

  TRACK 03 AUDIO
    TITLE "YOU GOTTA KICK IT"
    PERFORMER "SILENT FORCE : Rising from Ashes"
    INDEX 01 23:39:52

  TRACK 04 AUDIO
    TITLE "NO ONE LIKE YOU (Live 2013)"
    PERFORMER "SCORPIONS : MTV Unplugged - In Athens"
    INDEX 01 30:46:47

  TRACK 05 AUDIO
    TITLE "Introduction: WILL YOU LOVE ME TOMORROW"
    PERFORMER "SHIRELLES : Tonight's the Night"
    INDEX 01 49:35:09

  TRACK 06 AUDIO
    TITLE "Classic rock: WILL YOU LOVE ME TOMORROW?"
    PERFORMER "GRAHAM BONNET : Graham Bonnet"
    INDEX 01 53:51:12


SEO [PR] おまとめローン 冷え性対策 坂本龍馬 動画掲示板 レンタルサーバー SEO