[ オンエアリストに戻る ]
TITLE "Heavy Metal Syndicate #1190"
FILE "2013-12-01.mp3" WAVE
  TRACK 01 AUDIO
    TITLE "FEEDER"
    PERFORMER "RED DRAGON CARTEL : Red Dragon Cartel (feat. Robin Zander)"
    INDEX 01 00:00:00

  TRACK 02 AUDIO
    TITLE "KNIFE"
    PERFORMER "MOTORHEAD : Aftershock"
    INDEX 01 14:10:22

  TRACK 03 AUDIO
    TITLE "BORN TO BE A FIGHTER"
    PERFORMER "SILENT FORCE : Rising from Ashes"
    INDEX 01 18:47:51

  TRACK 04 AUDIO
    TITLE "DANCING WITH THE MOONLIGHT (Live 2013)"
    PERFORMER "SCORPIONS : MTV Unplugged - In Athens"
    INDEX 01 23:48:07

  TRACK 05 AUDIO
    TITLE "NaCl"
    PERFORMER "IHSAHN : Das Seelenbrechen"
    INDEX 01 29:42:02

  TRACK 06 AUDIO
    TITLE "Introduction: SOMEBODY TO LOVE"
    PERFORMER "JEFFERSON AIRPLANE : Surrealistic Pillow"
    INDEX 01 44:13:45

  TRACK 07 AUDIO
    TITLE "Classic rock: SOMEBODY TO LOVE"
    PERFORMER "GREAT WHITE : Psycho City (Japanese edition)"
    INDEX 01 49:04:06


SEO [PR] おまとめローン 冷え性対策 坂本龍馬 動画掲示板 レンタルサーバー SEO