[ オンエアリストに戻る ]
TITLE "Heavy Metal Syndicate #1189"
FILE "2013-11-24.mp3" WAVE
  TRACK 01 AUDIO
    TITLE "DECEIVED"
    PERFORMER "RED DRAGON CARTEL : Red Dragon Cartel"
    INDEX 01 00:00:00

  TRACK 02 AUDIO
    TITLE "ROCK'N'ROLL BAND (Live 2013)"
    PERFORMER "SCORPIONS : MTV Unplugged - In Athens"
    INDEX 01 14:51:74

  TRACK 03 AUDIO
    TITLE "CAUGHT IN THEIR WICKED GAME"
    PERFORMER "SILENT FORCE : Rising from Ashes"
    INDEX 01 21:42:63

  TRACK 04 AUDIO
    TITLE "HEAVEN ON EARTH"
    PERFORMER "BOSTON : Life, Love & Hope"
    INDEX 01 28:48:13

  TRACK 05 AUDIO
    TITLE "HIBER"
    PERFORMER "IHSAHN : Das Seelenbrechen"
    INDEX 01 34:37:09

  TRACK 06 AUDIO
    TITLE "Introduction: JOY TO THE WORLD"
    PERFORMER "THREE DOG NIGHT : Naturally"
    INDEX 01 45:03:29

  TRACK 07 AUDIO
    TITLE "Classic rock: JOY TO THE WORLD (Live 2004)"
    PERFORMER "THUNDER : Live at Rock City - Case # 2"
    INDEX 01 49:51:49


SEO [PR] おまとめローン 冷え性対策 坂本龍馬 動画掲示板 レンタルサーバー SEO