[ オンエアリストに戻る ]
TITLE "Heavy Metal Syndicate #1188"
FILE "2013-11-17.mp3" WAVE
  TRACK 01 AUDIO
    TITLE "HEARTBREAKER"
    PERFORMER "MOTORHEAD : Aftershock"
    INDEX 01 00:00:00

  TRACK 02 AUDIO
    TITLE "EMPTINESS INTO THE VOID"
    PERFORMER "IMPERIAL STATE ELECTRIC : Reptile Brain Music"
    INDEX 01 12:57:44

  TRACK 03 AUDIO
    TITLE "HOT 'N' READY (Live 1978)"
    PERFORMER "UFO : Hot 'n' Live - The Chrysalis Live Anthology 1974-1983 (Japan edition)"
    INDEX 01 16:24:60

  TRACK 04 AUDIO
    TITLE "RUNNING OUT OF TEARS"
    PERFORMER "ROYAL HUNT : A Life to Die For"
    INDEX 01 21:19:11

  TRACK 05 AUDIO
    TITLE "HOUSE OF THE RISING SUN"
    PERFORMER "FIVE FINGER DEATH PUNCH : The Wrong Side of Heaven and the Righteous Side of Hell volume 2"
    INDEX 01 28:24:41

  TRACK 06 AUDIO
    TITLE "Introduction: WUTHERING HEIGHTS"
    PERFORMER "KATE BUSH : The Kick Inside"
    INDEX 01 44:10:52

  TRACK 07 AUDIO
    TITLE "Classic rock: WUTHERING HEIGHTS"
    PERFORMER "ANGRA : Angels Cry"
    INDEX 01 49:57:34


SEO [PR] おまとめローン 冷え性対策 坂本龍馬 動画掲示板 レンタルサーバー SEO