[ オンエアリストに戻る ]
TITLE "Heavy Metal Syndicate #1187"
FILE "2013-11-10.mp3" WAVE
  TRACK 01 AUDIO
    TITLE "ONE MINUTE LEFT TO LIVE"
    PERFORMER "ROYAL HUNT : A Life to Die For"
    INDEX 01 00:00:00

  TRACK 02 AUDIO
    TITLE "WRITING ON THE WALL"
    PERFORMER "HORISONT : Time Warriors"
    INDEX 01 16:56:48

  TRACK 03 AUDIO
    TITLE "ANGELS CRY (Live 2013)"
    PERFORMER "ANGRA : Angels Cry - 20th Anniversary Tour"
    INDEX 01 23:42:45

  TRACK 04 AUDIO
    TITLE "RETROSPECT (Live 2013)"
    PERFORMER "EPICA : Retrospect - 10th Anniversary"
    INDEX 01 28:19:58

  TRACK 05 AUDIO
    TITLE "ROCK N ROLL SYMPHONY"
    PERFORMER "MICHAEL SCHENKER'S TEMPLE OF ROCK : Bridge the Gap"
    INDEX 01 35:07:72

  TRACK 06 AUDIO
    TITLE "Introduction: APACHE"
    PERFORMER "SHADOWS : Apache (single)"
    INDEX 01 49:51:35

  TRACK 07 AUDIO
    TITLE "Classic rock: APACHE"
    PERFORMER "RITCHIE BLACKMORE : Twang! - A Tribute to Hank Marvin & the Shadows (Compilation)"
    INDEX 01 54:14:58


SEO [PR] おまとめローン 冷え性対策 坂本龍馬 動画掲示板 レンタルサーバー SEO