[ オンエアリストに戻る ]
TITLE "Heavy Metal Syndicate #1186"
FILE "2013-11-03.mp3" WAVE
  TRACK 01 AUDIO
    TITLE "THE LAST DAYS OF RAIN"
    PERFORMER "ANDI DERIS AND THE BAD BANKERS : Million Dollar Haircuts on Ten Cent Heads"
    INDEX 01 00:00:00

  TRACK 02 AUDIO
    TITLE "BORN AGAIN"
    PERFORMER "IMPERIAL STATE ELECTRIC : Reptile Brain Music"
    INDEX 01 14:00:68

  TRACK 03 AUDIO
    TITLE "LORD OF THE LOST AND LONELY"
    PERFORMER "MICHAEL SCHENKER'S TEMPLE OF ROCK : Bridge the Gap"
    INDEX 01 19:46:02

  TRACK 04 AUDIO
    TITLE "LAND OF THUNDER"
    PERFORMER "MICHAEL SCHENKER'S TEMPLE OF ROCK : Bridge the Gap"
    INDEX 01 24:12:46

  TRACK 05 AUDIO
    TITLE "HELL TO THE HEAVENS"
    PERFORMER "LEAVES' EYES : Symphonies of the Night"
    INDEX 01 29:49:14

  TRACK 06 AUDIO
    TITLE "Introduction: WILD THING"
    PERFORMER "TROGGS : From Nowhere―The Troggs"
    INDEX 01 47:30:30

  TRACK 07 AUDIO
    TITLE "Classic rock: WILD THING"
    PERFORMER "X : Wild Thing (single) / Major League (Soundtrack)"
    INDEX 01 52:28:05


SEO [PR] おまとめローン 冷え性対策 坂本龍馬 動画掲示板 レンタルサーバー SEO