[ オンエアリストに戻る ]
TITLE "Heavy Metal Syndicate #1185"
FILE "2013-10-27.mp3" WAVE
  TRACK 01 AUDIO
    TITLE "HORIZONS"
    PERFORMER "MICHAEL SCHENKER'S TEMPLE OF ROCK : Bridge the Gap"
    INDEX 01 00:00:00

  TRACK 02 AUDIO
    TITLE "DON'T LISTEN TO THE RADIO (TWOTW 1938)"
    PERFORMER "ANDI DERIS AND THE BAD BANKERS : Million Dollar Haircuts on Ten Cent Heads"
    INDEX 01 15:34:30

  TRACK 03 AUDIO
    TITLE "Reissue: THE BOYS ARE BACK IN TOWN (Live 1981)"
    PERFORMER "THIN LIZZY : Thunder and Lightning (deluxe expanded edition)"
    INDEX 01 21:13:10

  TRACK 04 AUDIO
    TITLE "UNDERWHELMED"
    PERFORMER "IMPERIAL STATE ELECTRIC : Reptile Brain Music"
    INDEX 01 28:33:63

  TRACK 05 AUDIO
    TITLE "BAD SITUATION"
    PERFORMER "DREGEN : Dregen"
    INDEX 01 32:24:40

  TRACK 06 AUDIO
    TITLE "Introduction: YES SIR, I CAN BOOGIE"
    PERFORMER "BACCARA : Baccara"
    INDEX 01 47:32:71

  TRACK 07 AUDIO
    TITLE "Classic rock: YES SIR, I CAN BOOGIE"
    PERFORMER "EVIL MASQUERADE : Theatrical Madness"
    INDEX 01 52:35:22


SEO [PR] おまとめローン 冷え性対策 坂本龍馬 動画掲示板 レンタルサーバー SEO