[ オンエアリストに戻る ]
TITLE "Heavy Metal Syndicate #1184"
FILE "2013-10-20.mp3" WAVE
  TRACK 01 AUDIO
    TITLE "SYMPHONY OF DESTRUCTION (Live 2012)"
    PERFORMER "MEGADETH : Countdown to Extinction - Live"
    INDEX 01 00:00:00

  TRACK 02 AUDIO
    TITLE "LIKE A LION IN A CAGE"
    PERFORMER "IRON MASK : Fifth Son of Winterdoom"
    INDEX 01 14:39:28

  TRACK 03 AUDIO
    TITLE "Reissue: HIT BETWEEN THE EYES (Live 1991)"
    PERFORMER "SCORPIONS : Crazy World (Deluxe edition)"
    INDEX 01 21:58:17

  TRACK 04 AUDIO
    TITLE "Reissue: SUPERSTITION (Live 1973)"
    PERFORMER "BECK, BOGERT & APPICE : Beck, Bogert & Appice Live (ライヴ・イン・ジャパン -40周年記念盤-)"
    INDEX 01 27:39:23

  TRACK 05 AUDIO
    TITLE "SAVED BY LOVE"
    PERFORMER "STRYPER : No More Hell to Pay"
    INDEX 01 34:01:45

  TRACK 06 AUDIO
    TITLE "Introduction: WILD WORLD"
    PERFORMER "CAT STEVENS : Tea for the Tillerman"
    INDEX 01 48:25:32

  TRACK 07 AUDIO
    TITLE "Classic rock: WILD WORLD"
    PERFORMER "MR. BIG : Bump Ahead (Digitally remastered)"
    INDEX 01 54:01:51


SEO [PR] おまとめローン 冷え性対策 坂本龍馬 動画掲示板 レンタルサーバー SEO