[ オンエアリストに戻る ]
TITLE "Heavy Metal Syndicate #1183"
FILE "2013-10-13.mp3" WAVE
  TRACK 01 AUDIO
    TITLE "BATTLE BORN"
    PERFORMER "FIVE FINGER DEATH PUNCH : The Wrong Side of Heaven and the Righteous Side of Hell volume 2"
    INDEX 01 00:00:00

  TRACK 02 AUDIO
    TITLE "NEVER TOO LATE"
    PERFORMER "PLACE VENDOME : Thunder in the Distance"
    INDEX 01 18:14:01

  TRACK 03 AUDIO
    TITLE "JAILBREAK (Live 2013)"
    PERFORMER "EUROPE : Live at Sweden Rock (special guest: scott gorham)"
    INDEX 01 25:14:49

  TRACK 04 AUDIO
    TITLE "JUST LIKE THAT"
    PERFORMER "DREGEN : Dregen"
    INDEX 01 31:59:35

  TRACK 05 AUDIO
    TITLE "Introduction: SABRE DANCE"
    PERFORMER "ROYAL PHILHARMONIC ORCHESTRA (Conducted by Yuri simonov)"
    The Royal Philharmonic Collection - Khachaturian
    INDEX 01 47:38:26

  TRACK 06 AUDIO
    TITLE "Classic rock: SKIP SOFTLY (MY MOONBEAMS)"
    PERFORMER "PROCOL HARUM : Shine on Brightly (Digitally remastered)"
    INDEX 01 52:29:33


SEO [PR] おまとめローン 冷え性対策 坂本龍馬 動画掲示板 レンタルサーバー SEO