[ オンエアリストに戻る ]
TITLE "Heavy Metal Syndicate #1182"
FILE "2013-10-06.mp3" WAVE
  TRACK 01 AUDIO
    TITLE "LIGHTS OUT (Live 2013)"
    PERFORMER "EUROPE : Live at Sweden Rock (special guest: michael schenker)"
    INDEX 01 00:00:00

  TRACK 02 AUDIO
    TITLE "DIVISIONS OF ME"
    PERFORMER "DREGEN : Dregen"
    INDEX 01 16:17:70

  TRACK 03 AUDIO
    TITLE "ANDANTE"
    PERFORMER "JON LORD : Concerto for Group and Orchestra"
    INDEX 01 23:01:60

  TRACK 04 AUDIO
    TITLE "JESUS IS JUST ALRIGHT"
    PERFORMER "STRYPER : No More Hell to Pay"
    INDEX 01 28:44:60

  TRACK 05 AUDIO
    TITLE "Reissue: BOOGIE (Live 1973)"
    PERFORMER "BECK, BOGERT & APPICE : Beck, Bogert & Appice Live (ライヴ・イン・ジャパン -40周年記念盤-)"
    INDEX 01 35:19:27

  TRACK 06 AUDIO
    TITLE "Introduction: THE TRAIN KEPT A-ROLLIN'"
    PERFORMER "YARDBIRDS : Having a Rave Up with the Yardbirds"
    INDEX 01 48:15:44

  TRACK 07 AUDIO
    TITLE "Classic rock: HONEY HUSH"
    PERFORMER "FOGHAT : Energized"
    INDEX 01 53:11:61


SEO [PR] おまとめローン 冷え性対策 坂本龍馬 動画掲示板 レンタルサーバー SEO