[ オンエアリストに戻る ]
TITLE "Heavy Metal Syndicate #1181"
FILE "2013-09-29.mp3" WAVE
  TRACK 01 AUDIO
    TITLE "TALK TO ME"
    PERFORMER "PLACE VENDOME : Thunder in the Distance"
    INDEX 01 00:00:00

  TRACK 02 AUDIO
    TITLE "SO HAPPY I COULD DIE"
    PERFORMER "RECKLESS LOVE : Spirit"
    INDEX 01 14:12:59

  TRACK 03 AUDIO
    TITLE "CHRONIC"
    PERFORMER "LEPROUS : Coal"
    INDEX 01 20:08:67

  TRACK 04 AUDIO
    TITLE "PARADISE (WHAT ABOUT US?)"
    PERFORMER "WITHIN TEMPTATION : Paradise (what about us?) (EP) (feat. tarja)"
    INDEX 01 29:52:00

  TRACK 05 AUDIO
    TITLE "Introduction: SUMMERTIME"
    PERFORMER "RICK NELSON : Album Seven by Rick"
    INDEX 01 42:41:48

  TRACK 06 AUDIO
    TITLE "Introduction: (WE AIN'T GOT) NOTHIN' YET"
    PERFORMER "BLUES MAGOOS : Psychedelic Lollipop"
    INDEX 01 46:27:07

  TRACK 07 AUDIO
    TITLE "Classic rock: BLACK NIGHT (Live 1993)"
    PERFORMER "DEEP PURPLE : Come Hell or High Water"
    INDEX 01 48:51:40


SEO [PR] おまとめローン 冷え性対策 坂本龍馬 動画掲示板 レンタルサーバー SEO