[ オンエアリストに戻る ]
TITLE "Heavy Metal Syndicate #1180"
FILE "2013-09-22.mp3" WAVE
  TRACK 01 AUDIO
    TITLE "NEW HORIZON"
    PERFORMER "ANSWER : New Horizon"
    INDEX 01 00:00:00

  TRACK 02 AUDIO
    TITLE "TE AMO"
    PERFORMER "STRYPER : No More Hell to Pay"
    INDEX 01 16:47:46

  TRACK 03 AUDIO
    TITLE "BLOOD HOST"
    PERFORMER "SCAR THE MARTYR : Scar the Martyr"
    INDEX 01 22:34:41

  TRACK 04 AUDIO
    TITLE "Reissue: MR WHITE"
    PERFORMER "SPIRITUAL BEGGARS : Spiritual Beggars (2013 reissue)"
    INDEX 01 31:38:17

  TRACK 05 AUDIO
    TITLE "Introduction: SHE'S NOT THERE (stereo mix)"
    PERFORMER "ZOMBIES : Begin Here"
    INDEX 01 45:35:14

  TRACK 06 AUDIO
    TITLE "Classic rock: SHE'S NOT THERE"
    PERFORMER "VANILLA FUDGE : The Return"
    INDEX 01 50:54:63


SEO [PR] おまとめローン 冷え性対策 坂本龍馬 動画掲示板 レンタルサーバー SEO