[ オンエアリストに戻る ]
TITLE "Heavy Metal Syndicate #1179"
FILE "2013-09-15.mp3" WAVE
  TRACK 01 AUDIO
    TITLE "STRIFE"
    PERFORMER "TRIVIUM : Vengeance Falls"
    INDEX 01 00:00:00

  TRACK 02 AUDIO
    TITLE "LONG TIME DEAD"
    PERFORMER "NEWSTED : Heavy Metal Music"
    INDEX 01 13:20:54

  TRACK 03 AUDIO
    TITLE "HEARTBREAKER"
    PERFORMER "GLAMOUR OF THE KILL : Savages"
    INDEX 01 20:21:40

  TRACK 04 AUDIO
    TITLE "FIGHT THE WORLD"
    PERFORMER "ANNIHILATOR : Feast"
    INDEX 01 24:44:44

  TRACK 05 AUDIO
    TITLE "COAL"
    PERFORMER "LEPROUS : Coal"
    INDEX 01 31:43:17

  TRACK 06 AUDIO
    TITLE "Introduction: LOUIE LOUIE"
    PERFORMER "KINGSMEN : The Kingsmen in Person"
    INDEX 01 47:51:16

  TRACK 07 AUDIO
    TITLE "Classic rock: LOUIE LOUIE"
    PERFORMER "MOTORHEAD : Louie Louie (single) (Digitally remastered)"
    INDEX 01 53:01:19


SEO [PR] おまとめローン 冷え性対策 坂本龍馬 動画掲示板 レンタルサーバー SEO