[ オンエアリストに戻る ]
TITLE "Heavy Metal Syndicate #1178"
FILE "2013-09-08.mp3" WAVE
  TRACK 01 AUDIO
    TITLE "NOTHING ELSE MATTERS (Live 2012)"
    PERFORMER "METALLICA : Through the Never (music from the motion picture)"
    INDEX 01 00:00:00

  TRACK 02 AUDIO
    TITLE "BRAVE THIS STORM"
    PERFORMER "TRIVIUM : Vengeance Falls"
    INDEX 01 14:54:33

  TRACK 03 AUDIO
    TITLE "MAGNOLIA BLVD."
    PERFORMER "BUTCHER BABIES : Goliath"
    INDEX 01 21:30:71

  TRACK 04 AUDIO
    TITLE "SOUL DISINTEGRATION"
    PERFORMER "SCAR THE MARTYR : Scar the Martyr"
    INDEX 01 28:09:16

  TRACK 05 AUDIO
    TITLE "Introduction: GOOD TIMES"
    PERFORMER "ERIC BURDON & THE ANIMALS : Winds of Change (Digitally remastered)"
    INDEX 01 45:29:15

  TRACK 06 AUDIO
    TITLE "Classic rock: GOOD TIMES"
    PERFORMER "OZZY OSBOURNE : Prince of Darkness (Disc 4) / Under Cover"
    INDEX 01 51:16:00


SEO [PR] おまとめローン 冷え性対策 坂本龍馬 動画掲示板 レンタルサーバー SEO