[ オンエアリストに戻る ]
TITLE "Heavy Metal Syndicate #1177"
FILE "2013-09-01.mp3" WAVE
  TRACK 01 AUDIO
    TITLE "THE ENEMY INSIDE"
    PERFORMER "DREAM THEATER : Dream Theater"
    INDEX 01 00:00:00

  TRACK 02 AUDIO
    TITLE "I SMELL A MASSACRE"
    PERFORMER "BUTCHER BABIES : Goliath"
    INDEX 01 19:44:27

  TRACK 03 AUDIO
    TITLE "BAD LOVIN'"
    PERFORMER "RECKLESS LOVE : Spirit"
    INDEX 01 24:53:13

  TRACK 04 AUDIO
    TITLE "UNFIT FOR HUMAN CONSUMPTION"
    PERFORMER "CARCASS : Surgical Steel"
    INDEX 01 28:56:12

  TRACK 05 AUDIO
    TITLE "WILD DOGS (acoustic version)"
    PERFORMER "TOMMY BOLIN : Whirlwind"
    INDEX 01 36:56:06

  TRACK 06 AUDIO
    TITLE "Introduction: THE TEARS OF A CLOWN"
    PERFORMER "SMOKEY ROBINSON & THE MIRACLES : Make It Happen"
    INDEX 01 46:36:04

  TRACK 07 AUDIO
    TITLE "Classic rock: TEARS OF A CLOWN"
    PERFORMER "ENUFF Z'NUFF : 1985"
    INDEX 01 50:54:33


SEO [PR] おまとめローン 冷え性対策 坂本龍馬 動画掲示板 レンタルサーバー SEO