[ オンエアリストに戻る ]
TITLE "Heavy Metal Syndicate #1176"
FILE "2013-08-25.mp3" WAVE
  TRACK 01 AUDIO
    TITLE "WRAPPED"
    PERFORMER "ANNIHILATOR : Feast"
    INDEX 01 00:00:00

  TRACK 02 AUDIO
    TITLE "NIGHT ON FIRE"
    PERFORMER "RECKLESS LOVE : Spirit"
    INDEX 01 09:39:42

  TRACK 03 AUDIO
    TITLE "RESCUE ME"
    PERFORMER "GLAMOUR OF THE KILL : Savages"
    INDEX 01 15:11:32

  TRACK 04 AUDIO
    TITLE "VICTIM OF RITUAL"
    PERFORMER "TARJA : Colours in the Dark"
    INDEX 01 20:53:73

  TRACK 05 AUDIO
    TITLE "Introduction: ASTRONOMY"
    PERFORMER "BLUE OYSTER CULT : Secret Treaties (Digitally remastered)"
    INDEX 01 36:39:15

  TRACK 06 AUDIO
    TITLE "Classic rock: ASTRONOMY"
    PERFORMER "METALLICA : Garage Inc. (Digitally remastered)"
    INDEX 01 46:00:34


SEO [PR] おまとめローン 冷え性対策 坂本龍馬 動画掲示板 レンタルサーバー SEO