[ オンエアリストに戻る ]
TITLE "Heavy Metal Syndicate #1175"
FILE "2013-08-18.mp3" WAVE
  TRACK 01 AUDIO
    TITLE "TNT DIET"
    PERFORMER "MICHAEL MONROE : Horns and Halos"
    INDEX 01 00:00:00

  TRACK 02 AUDIO
    TITLE "DEADLOCK"
    PERFORMER "ANNIHILATOR : Feast"
    INDEX 01 12:56:60

  TRACK 03 AUDIO
    TITLE "SOLDIERHEAD"
    PERFORMER "NEWSTED : Heavy Metal Music"
    INDEX 01 19:16:04

  TRACK 04 AUDIO
    TITLE "THE GRANULATING DARK SATANIC MILLS"
    PERFORMER "CARCASS : Surgical Steel"
    INDEX 01 24:20:13

  TRACK 05 AUDIO
    TITLE "GUITAR HERO"
    PERFORMER "REINXEED : A New World"
    INDEX 01 31:08:49

  TRACK 06 AUDIO
    TITLE "Introduction: SHE'S A WOMAN"
    PERFORMER "BEATLES : I Feel Fine (single) (Digitally remastered)"
    INDEX 01 46:48:30

  TRACK 07 AUDIO
    TITLE "Classic rock: SHE'S A WOMAN"
    PERFORMER "JEFF BECK : Blow by Blow (Digitally remastered)"
    INDEX 01 50:42:44


SEO [PR] おまとめローン 冷え性対策 坂本龍馬 動画掲示板 レンタルサーバー SEO