[ オンエアリストに戻る ]
TITLE "Heavy Metal Syndicate #1174"
FILE "2013-08-11.mp3" WAVE
  TRACK 01 AUDIO
    TITLE "SPECTACULAR"
    PERFORMER "ANSWER : New Horizon"
    INDEX 01 00:00:00

  TRACK 02 AUDIO
    TITLE "EIGHTEEN ANGELS"
    PERFORMER "MICHAEL MONROE : Horns and Halos"
    INDEX 01 13:44:35

  TRACK 03 AUDIO
    TITLE "CADAVER POUCH CONVEYOR SYSTEM"
    PERFORMER "CARCASS : Surgical Steel"
    INDEX 01 20:13:69

  TRACK 04 AUDIO
    TITLE "NEKROKOSMOS"
    PERFORMER "KVELERTAK : Meir"
    INDEX 01 25:19:60

  TRACK 05 AUDIO
    TITLE "SAVIORS NEVER CRY"
    PERFORMER "HAREM SCAREM : Mood Swings II"
    INDEX 01 30:56:30

  TRACK 06 AUDIO
    TITLE "Introduction: DEAR FRIENDS"
    PERFORMER "QUEEN : Sheer Heart Attack (Digitally remastered)"
    INDEX 01 50:10:25

  TRACK 07 AUDIO
    TITLE "Classic rock: DEAR FRIENDS"
    PERFORMER "DEF LEPPARD : Yeah! Bonus CD with Backstage Interviews"
    INDEX 01 54:03:05


SEO [PR] おまとめローン 冷え性対策 坂本龍馬 動画掲示板 レンタルサーバー SEO