[ オンエアリストに戻る ]
TITLE "Heavy Metal Syndicate #1173"
FILE "2013-08-04.mp3" WAVE
  TRACK 01 AUDIO
    TITLE "HEROIC DOSE"
    PERFORMER "NEWSTED : Heavy Metal Music"
    INDEX 01 00:00:00

  TRACK 02 AUDIO
    TITLE "HAIL TO THE KING"
    PERFORMER "AVENGED SEVENFOLD : Hail to the King"
    INDEX 01 15:12:31

  TRACK 03 AUDIO
    TITLE "UNDERTOW"
    PERFORMER "JAMES LaBRIE : Impermanent Resonance"
    INDEX 01 22:32:29

  TRACK 04 AUDIO
    TITLE "ELEMENTAL I"
    PERFORMER "PREACHER : Counterfeit Penitence"
    INDEX 01 29:44:33

  TRACK 05 AUDIO
    TITLE "Introduction: DIAMONDS & RUST"
    PERFORMER "JOAN BAEZ : Diamonds & Rust"
    INDEX 01 46:54:54

  TRACK 06 AUDIO
    TITLE "Classic rock: DIAMONDS AND RUST"
    PERFORMER "JUDAS PRIEST : Sin After Sin (Digitally remastered)"
    INDEX 01 52:37:66


SEO [PR] おまとめローン 冷え性対策 坂本龍馬 動画掲示板 レンタルサーバー SEO