[ オンエアリストに戻る ]
TITLE "Heavy Metal Syndicate #1172"
FILE "2013-07-28.mp3" WAVE
  TRACK 01 AUDIO
    TITLE "AGONY"
    PERFORMER "JAMES LaBRIE : Impermanent Resonance"
    INDEX 01 00:00:00

  TRACK 02 AUDIO
    TITLE "THE ONLY ONE"
    PERFORMER "GLAMOUR OF THE KILL : Savages"
    INDEX 01 15:45:60

  TRACK 03 AUDIO
    TITLE "QUEEN OF THE REICH (Live 2012)"
    PERFORMER "QUEENSRYCHE : Queensrÿche"
    INDEX 01 22:00:08

  TRACK 04 AUDIO
    TITLE "EN FORCE (Live 2012)"
    PERFORMER "QUEENSRYCHE : Queensrÿche"
    INDEX 01 26:30:54

  TRACK 05 AUDIO
    TITLE "I.M.SIN"
    PERFORMER "FIVE FINGER DEATH PUNCH : The Wrong Side of Heaven and the Righteous Side of Hell volume 1"
    INDEX 01 32:39:54

  TRACK 06 AUDIO
    TITLE "Introduction: KNOCKIN' ON HEAVEN'S DOOR"
    PERFORMER "BOB DYLAN : Pat Garrett & Billy the Kid"
    INDEX 01 45:30:30

  TRACK 07 AUDIO
    TITLE "Classic rock: KNOCKIN' ON HEAVEN'S DOOR (Live 1987)"
    PERFORMER "GUNS N' ROSES : EP (ライヴ・フロム・ザ・ジャングル)"
    INDEX 01 49:01:16


SEO [PR] おまとめローン 冷え性対策 坂本龍馬 動画掲示板 レンタルサーバー SEO