[ オンエアリストに戻る ]
TITLE "Heavy Metal Syndicate #1171"
FILE "2013-07-21.mp3" WAVE
  TRACK 01 AUDIO
    TITLE "THE GAME"
    PERFORMER "MASTERPLAN : Novum Initium"
    INDEX 01 00:00:00

  TRACK 02 AUDIO
    TITLE "SECOND CHANCE"
    PERFORMER "GLAMOUR OF THE KILL : Savages"
    INDEX 01 15:37:00

  TRACK 03 AUDIO
    TITLE "PERFECT DRUG"
    PERFORMER "BREAKING ARROWS : Breaking Arrows"
    INDEX 01 21:10:56

  TRACK 04 AUDIO
    TITLE "COLD AS ICE (Live 2012)"
    PERFORMER "FIREWIND : Apotheosis - Live 2012"
    INDEX 01 26:08:50

  TRACK 05 AUDIO
    TITLE "MYSTERY ISLAND"
    PERFORMER "STATUS QUO : Bula Quo! (Soundtrack)"
    INDEX 01 33:08:13

  TRACK 06 AUDIO
    TITLE "Introduction: SYMPHONY No. 5 in C Minor, Op. 67 (I. Allegro con brio)"
    PERFORMER "CARLOS PAÏTA & THE PHILHARMONIC SYMPHONY ORCHESTRA"
    Beethoven - Symphony No. 5 in C Minor, Op. 67 & Coriolan Overture
    INDEX 01 46:06:23

  TRACK 07 AUDIO
    TITLE "Classic rock: THE FIFTH"
    PERFORMER "PAT TRAVERS : Black Pearl"
    INDEX 01 49:42:41


SEO [PR] おまとめローン 冷え性対策 坂本龍馬 動画掲示板 レンタルサーバー SEO